#TITLE:Drop The Bomb;
#SUBTITLE:(Hardcore Hiroshima Groove);
#ARTIST:Scotty D. VS DJ Potatoe;
#TITLETRANSLIT:;
#SUBTITLETRANSLIT:;
#ARTISTTRANSLIT:;
#CREDIT:;
#BANNER:DropTheBomb-banner.png;
#BACKGROUND:DropTheBomb-bg.png;
#LYRICSPATH:;
#CDTITLE:;
#MUSIC:Drop Bomb mix.mp3;
#MUSICLENGTH:87.484;
#OFFSET:-0.160;
#SAMPLESTART:55.205;
#SAMPLELENGTH:12.000;
#SELECTABLE:YES;
#BPMS:0.000=167.460;
#STOPS:;
#BGCHANGES:;
#FIRSTBEAT:12.000;

#LASTBEAT:236.000;

#SONGFILENAME:Songs/ERICth MIX 2nd Style/Drop Bomb mix/dropbomb.sm;

#HASMUSIC:1;

#HASBANNER:1;


//---------------dance-single - MANIAC----------------
#NOTES:
     dance-single:
     MANIAC:
     hard:
     9:
     0.599,0.573,0.194,0.183,0.103,334.000,17.000,16.000,0.000,0.000:



0000
0000
0000
0000
,
0000
0000
0000
0000
,
0000
0000
0000
0000
,
2000
0000
0000
0000
,
0002
0000
0000
0000
,
3000
0200
0000
0000
,
0003
0000
0000
0300
,
1000
0000
0000
0010
0000
0000
1000
0001
1000
0000
0001
0100
0001
0100
0001
0000
,
1000
0100
1000
0100
0000
0100
1000
0001
,
1000
0100
1000
0100
0000
0100
1000
0001
,
0010
0100
0010
0100
0000
0100
1000
0001
,
1000
0001
1000
0001
0000
0001
1000
1000
,
0001
0010
0001
0010
0000
0010
0001
1000
,
0001
0100
1000
0100
0000
0100
0001
0010
,
0001
1000
0001
0100
0000
0100
0001
0100
,
0010
0100
1000
0100
0000
1000
0100
0001
,
1000
0100
1000
0100
0000
0100
1000
0001
,
1000
0100
1000
0100
0000
0100
1000
0001
,
0010
0100
0010
0100
0000
0100
1000
0001
,
1000
0001
1000
0001
0000
0001
1000
1000
,
0001
0010
0001
0010
0000
0010
0001
1000
,
0001
0100
1000
0100
0000
0100
0001
0010
,
0001
1000
0001
0100
0000
0100
0001
0100
,
0010
0100
1000
0100
0000
1000
0100
0001
,
1000
1000
1000
1000
,
1000
0000
0000
0100
0000
0000
1100
0000
2200
0000
0000
0000
3300
0000
0000
0000
,
0001
0000
0000
0100
0000
0000
0101
0000
0202
0000
0000
0000
0303
0000
0000
0000
,
1000
0000
0000
0010
0000
0000
1010
0000
2020
0000
0000
0000
3030
0000
0000
0000
,
0001
0000
0000
0010
0000
0000
0011
0000
0022
0000
0000
0000
0033
0000
0000
0000
,
0010
1000
0100
0001
0100
1000
0010
0001
,
0010
1000
0100
0001
0100
1000
0010
0001
,
0010
0010
0010
0010
,
0010
0010
0010
0010
,
0010
1000
0100
0001
0100
1000
0010
0001
,
0010
0000
0000
0100
0000
0100
0000
0100
,
2001
3000
0002
0003
2000
3000
0002
0003
,
1000
0100
0010
0100
1000
0100
0001
0000
,
1100
0000
0000
0110
0000
0000
0011
0000
1001
0000
0000
0000
0000
0000
0000
0000
,
0101
0000
0000
0110
0000
0000
1010
0000
1001
0000
0000
0000
0000
0000
0000
0000
,
1000
0100
1000
0100
0000
0100
1000
0001
,
1000
0100
1000
0100
0000
0100
1000
0001
,
0010
0100
0010
0100
0000
0100
1000
0001
,
1000
0001
1000
0001
0000
0001
1000
1000
,
0001
0010
0001
0010
0000
0010
0001
1000
,
0001
0100
1000
0100
0000
0100
0001
0010
,
0001
1000
0001
0100
0000
0100
0001
0100
,
0010
0100
1000
0100
0000
1000
0100
0001
,
1000
0100
1000
0100
0000
0100
1000
0001
,
1000
0100
1000
0100
0000
0100
1000
0001
,
0010
0100
0010
0100
0000
0100
1000
0001
,
1000
0001
1000
0001
0000
0001
1000
1000
,
0001
0010
0001
0010
0000
0010
0001
1000
,
0001
0100
1000
0100
0000
0100
0001
0010
,
0001
1000
0001
0100
0000
0100
0001
0100
,
0010
0100
1000
0100
0000
1000
0100
0001
,
1000
0000
0000
0000
0000
1000
0100
0001
,
1000
0000
0000
0000
0000
1000
0100
0001
,
1000
0100
0001
0100
1000
0100
0001
0100
1000
0100
0001
0100
,
2000
0000
0000
3000
,
0100
0000
0000
0000;

//---------------dance-single - ANOTHER----------------
#NOTES:
     dance-single:
     ANOTHER:
     medium:
     4:
     0.371,0.438,0.057,0.057,0.000,217.000,5.000,5.000,0.000,0.000:



0000
0000
0000
0000
,
0000
0000
0000
0000
,
0000
0000
0000
0000
,
0000
0000
0000
0000
,
0010
0000
0000
0000
,
0010
0000
0000
0000
,
0010
0000
0000
0000
,
0010
0000
0010
0010
,
0010
1000
0100
0000
0100
0000
0100
0000
,
0010
1000
0100
0000
0100
0000
0100
0000
,
0010
1000
0100
0000
0100
0000
0100
0000
,
0010
1000
0100
0000
0100
0000
0100
0000
,
0010
0001
0100
0000
0100
0000
0100
0000
,
0010
0001
0100
0000
0100
0000
0100
0000
,
0010
0001
0100
0000
0100
0000
0100
0000
,
0010
0001
0100
0000
0100
0000
0100
0000
,
0001
1000
0001
0000
0100
0000
0100
0000
,
1000
0001
1000
0000
0100
0000
0100
0000
,
0001
1000
0001
0000
0100
0000
0100
0000
,
1000
0001
1000
0000
0100
0000
0100
0000
,
0001
1000
0001
0000
0100
0000
0100
0000
,
1000
0001
1000
0000
0100
0000
0100
0000
,
0001
1000
0001
0000
0100
0000
0100
0000
,
1000
0001
1000
0000
0100
0000
0100
0000
,
0020
0000
0000
0000
,
1030
0000
0001
0000
,
1000
0000
0001
0000
,
1000
0000
0001
0000
,
1000
0000
0001
0000
,
1000
0100
0010
0000
0010
0001
0100
0000
,
0010
1000
0001
0000
0010
0001
1000
0000
,
0100
0010
0100
0000
0010
0100
0010
0000
,
0001
1000
0100
0000
0001
1000
0100
0000
,
0001
0000
0100
0000
1000
0000
0010
1000
,
0100
0000
0000
0001
0000
0001
0000
0001
,
0100
0000
1000
0000
0010
1000
0100
0000
,
0001
1000
0100
1000
0100
1000
0010
0000
,
0100
0000
0100
0000
,
0010
0000
0010
0000
,
0001
1000
0010
0100
,
1000
0010
1000
0100
,
0001
0100
0010
1000
,
0010
1000
0100
1000
0010
1000
0100
0000
,
0001
0010
0001
0100
,
0001
1000
0001
1010
,
0101
1000
0001
1000
,
0010
0001
0100
0001
0010
0001
0100
0000
,
0001
1000
0001
0000
,
0001
1000
0001
0000
,
0001
1000
0001
0000
,
0010
1000
0100
0001
,
0100
1000
0100
1000
,
0100
1000
0010
1000
,
0100
0010
0001
1000
,
0001
0010
0100
0010
,
0100
0200
0000
0000
0000
0000
0000
0300
,
0020
0000
0000
0000
0000
0000
0000
0030
,
2002
0000
0000
0000
0000
0000
0000
3003
,
1001
0000
0000
0000
,
0110
0000
0000
0000;

//---------------dance-single - BASIC----------------
#NOTES:
     dance-single:
     BASIC:
     easy:
     2:
     0.149,0.270,0.183,0.046,0.000,71.000,16.000,4.000,0.000,0.000:



0000
0000
0000
0000
,
0000
0000
0000
0000
,
0000
0000
0000
0000
,
0000
0000
0000
0000
,
0002
0000
0000
0000
,
0000
0000
0000
0000
,
0000
0000
0000
0000
,
0000
0000
0000
0000
,
1003
0000
0000
0000
,
0010
0000
0000
0000
,
0010
0000
0000
0000
,
0001
0000
0000
0100
,
1000
0000
0000
0000
,
0010
0000
0000
0000
,
0001
0000
0000
0000
,
0100
0000
0000
0010
,
0001
0000
0000
0000
,
0010
0000
0000
0000
,
0100
0000
0000
0000
,
1000
0000
0000
0001
,
1000
0000
0000
0000
,
0100
0000
0000
0000
,
1000
0000
0000
0000
,
0010
0000
0000
0001
,
1000
0000
0000
0000
,
0010
0000
0000
0000
,
0100
0000
0000
0000
,
0010
0000
0000
0000
,
0100
0000
0000
0000
,
1100
0000
0000
0000
,
1100
0000
0000
0000
,
0101
0000
0000
0000
,
0101
0000
0000
0000
,
0010
0000
0100
0000
,
0010
0000
1010
0000
,
0011
0000
0000
0000
,
0000
0000
0000
0000
,
0002
0000
0000
0000
,
0000
0000
0000
0000
,
1003
0000
0100
0000
,
0010
0000
0100
0000
,
1000
0000
0100
0000
,
1000
0010
1000
0010
,
1000
0000
0100
0000
,
0001
0000
0010
0000
,
0001
0000
0100
0000
,
0010
0000
0100
0000
,
1000
0000
0001
0000
,
0010
0000
0001
0000
,
0100
0000
0010
0000
,
1010
0000
0000
0000
,
0101
0000
0000
0000
,
0010
0000
0000
0000
,
0110
0000
0000
0000
,
0110
0000
0000
0000
,
0110
0000
0000
0000
,
1001
0000
0000
0000
,
0110
0000
1001
0000
,
0220
0000
0000
0330
,
1001
0000
0000
0000;
